#TITLE:EDIT speed version;
#SUBTITLE:For those that want a challenge;
#ARTIST:V14D Remixed by Neojock;
#TITLETRANSLIT:;
#SUBTITLETRANSLIT:;
#ARTISTTRANSLIT:;
#CREDIT:;
#BANNER:EDIT speed version-ban.PNG;
#BACKGROUND:EDIT speed version-bg.PNG;
#LYRICSPATH:;
#CDTITLE:;
#MUSIC:EDIT speed version.ogg;
#OFFSET:0.000;
#SAMPLESTART:58.780;
#SAMPLELENGTH:12.000;
#SELECTABLE:YES;
#BPMS:0.000=75.000,16.000=150.000;
#STOPS:;
#BGCHANGES:;
// cache tags:
#FIRSTBEAT:0.000;
#LASTBEAT:180.000;
#SONGFILENAME:Songs/nhac/EDIT speed version/EDIT speed version.sm;
#HASMUSIC:1;
#HASBANNER:1;
#MUSICLENGTH:225.600;
// end cache tags

//---------------dance-single - ----------------
#NOTES:
     dance-single:
     :
     Challenge:
     15:
     0.533,0.658,0.789,0.009,0.796,662.000,178.000,2.000,0.000,0.000:
1000
0100
0000
0000
0010
0000
0001
0010
0001
0000
1000
0100
0000
0010
0001
0000
0100
0010
0100
0000
1000
0000
0100
0010
0001
0000
0100
0010
0000
0100
1000
0000
,
0100
0010
0001
0000
0100
0000
1000
0100
0010
0000
0001
0010
0000
0100
0010
0000
1000
0100
0010
0000
0001
0010
0100
0010
0100
0000
0001
0010
0000
0100
0010
0000
,
0110
1001
1100
1001
0011
0110
1001
1100
0011
0110
1001
1100
0011
0110
1001
0110
,
0011
0110
1001
0110
1001
0110
0011
1100
0011
0110
1001
1100
0011
0110
1001
0110
,
1000
0100
1000
0100
0010
0100
0010
0100
0001
0100
0001
0100
0010
0100
0010
0100
,
1000
0100
1000
0100
0010
0100
0010
0100
0001
0100
0001
0100
0010
0100
0010
0100
,
1000
0100
1000
0100
0010
0001
0100
0000
0010
0100
1000
0000
0100
0010
0100
0000
,
0001
0010
0001
0000
1000
0100
1000
0000
0010
0001
1000
0100
0010
0100
1000
0100
,
0001
0010
0001
0000
1000
0100
1000
0000
0100
0010
0100
0000
0001
0010
0001
0000
,
1000
0100
1000
0000
0100
0010
0100
0000
0001
0010
0001
0000
1000
0001
1000
0000
,
0001
0010
0001
0000
1000
0100
1000
0000
0001
0010
0001
0000
1000
0100
1000
0000
,
0001
0010
0001
0000
1000
0100
0001
0000
0001
0010
0100
0000
1000
0100
0010
0001
,
0110
0100
0010
0010
1000
1000
0010
0010
0101
0001
0100
0100
0010
0010
0100
0100
,
1100
1000
0010
0010
0100
0100
0001
0001
0110
0010
1000
1000
0100
0100
0010
0010
,
1100
1000
0010
0010
0100
0100
0001
0001
1010
1000
0010
0010
0100
0100
0001
0001
,
1010
1000
0100
0100
0010
0010
0100
0100
0011
0010
0100
0100
1000
1000
0100
0100
,
0101
0001
0010
0010
0100
0100
1000
1000
0110
0010
0100
0100
1000
1000
0100
0100
,
0011
0001
0010
0010
0100
0100
0010
0010
1100
1000
0100
0100
0010
0010
0100
0100
,
0011
0010
0001
0001
0010
0010
0100
0100
1010
1000
0100
0100
0010
0010
0100
0100
,
0011
0001
0010
0010
0100
0100
0010
0010
1010
1000
0100
0100
0010
0010
0100
0100
,
1000
0001
1000
0001
1000
0001
1000
0001
1000
0001
1000
0001
,
0100
0000
0000
0000
0010
0000
0000
0000
0100
0000
0000
0000
0010
0000
0000
0000
0100
0000
0000
0000
0010
0000
0000
0000
0100
0000
0000
0010
0000
0000
0100
0000
0000
0010
0000
0000
0100
0000
0000
0010
0000
0000
0100
0000
0000
0010
0000
0000
,
0100
0010
0001
1000
0100
0010
0001
1000
0100
0010
0001
1000
0100
0010
0001
1000
0100
0010
0001
1000
0100
0010
0001
1000
,
0100
0000
0000
0000
0000
0000
0010
0000
0000
0000
0000
0000
0001
0000
0000
0000
0000
0000
1000
0000
0000
0000
0000
0000
0100
0000
0000
0000
0000
0000
0010
0000
0000
0000
0000
0000
0001
0000
0000
0000
0000
0000
1000
0000
0000
0000
0000
0000
0100
0000
0000
0000
0000
0000
0010
0000
0000
0000
0000
0000
0001
0000
0000
0000
0000
0000
1000
0000
0000
0000
0000
0000
0100
0000
0000
0000
0000
0000
0010
0000
0000
0000
0000
0000
0001
0000
0000
0000
0000
0000
1000
0000
0000
0000
0000
0000
0100
0000
0000
0000
0000
0000
0010
0000
0000
0000
0000
0000
0001
0000
0000
0000
0000
0000
1000
0000
0000
0000
0000
0000
0100
0000
0000
0000
0010
0000
0000
0000
0001
0000
0000
0000
1000
0000
0000
0000
0100
0000
0000
0000
0010
0000
0000
0000
0001
0000
0000
0000
1000
0000
0000
0000
0100
0000
0000
0000
0010
0000
0000
0000
0001
0000
0000
0000
1000
0000
0000
0000
0100
0000
0000
0010
0000
0000
0001
0000
0000
1000
0000
0000
0100
0000
0000
0010
0000
0000
0001
0000
0000
1000
0000
0000
,
0100
0010
0100
0010
0100
0010
0100
0010
0100
0010
0100
0010
,
1000
0001
1000
0001
1000
0001
1000
0001
1000
0001
1000
0001
,
1000
0000
0000
0001
0000
0000
1000
0000
0000
0001
0000
0000
1000
0000
0000
0001
0000
0000
1000
0000
0000
0001
0000
0000
1000
0000
0100
0000
0010
0000
0001
0000
1000
0000
0100
0000
0010
0000
0001
0000
1000
0000
0100
0000
0010
0000
0001
0000
,
1000
0000
0000
0000
0000
0000
0000
0000
0100
0000
0000
0000
0000
0000
0000
0000
0010
0000
0000
0000
0000
0000
0000
0000
0001
0000
0000
0000
0000
0000
0000
0000
1000
0000
0000
0000
0000
0000
0000
0000
0100
0000
0000
0000
0000
0000
0000
0000
0010
0000
0000
0000
0000
0000
0001
0000
0000
0000
0000
0000
1000
0000
0000
0000
0000
0000
0100
0000
0000
0000
0000
0000
0010
0000
0000
0000
0000
0000
0001
0000
0000
0000
0000
0000
1000
0000
0000
0000
0000
0000
0100
0000
0000
0000
0000
0000
0010
0000
0000
0000
0000
0000
0001
0000
0000
0000
0000
0000
1000
0000
0000
0000
0000
0000
0100
0000
0000
0000
0000
0000
0010
0000
0000
0000
0001
0000
0000
0000
1000
0000
0000
0000
0100
0000
0000
0000
0010
0000
0000
0000
0001
0000
0000
0000
1000
0000
0000
0000
0100
0000
0000
0000
0010
0000
0000
0000
0001
0000
0000
0000
1000
0000
0000
0000
0100
0000
0000
0000
0010
0000
0000
0001
0000
0000
1000
0000
0000
0100
0000
0000
0010
0000
0000
0001
0000
0000
1000
0000
0000
0100
0000
0000
,
1010
1000
0010
0010
0110
0100
1000
1000
0100
0100
0010
0010
0110
0100
0010
0010
,
0001
0001
0010
0010
0110
0100
1000
1000
0100
0100
0010
0010
1100
1000
0010
0010
,
0100
0100
0001
0001
1001
1000
0100
0010
0100
0010
1000
0001
0110
1000
0100
1000
,
0100
0010
0100
1000
0110
1000
0100
1000
0011
0110
0110
0110
1001
0110
1100
0011
,
0110
1001
1100
0110
1100
0110
1100
0110
1100
0000
0110
0000
1100
0000
0110
0000
,
0011
0110
0011
0110
0011
0110
0011
0110
0011
0000
0110
0000
1001
0000
0110
0000
,
1001
0110
1100
0110
0011
1001
0110
1100
1100
0000
0011
0000
0110
0000
1001
0000
,
0110
0011
0011
0110
0110
1001
0110
1001
1100
0000
0101
0000
0110
0000
1001
0110
,
1001
1001
0110
0110
0011
0011
0110
0110
1001
1001
1100
1100
0110
0110
1001
1001
,
0110
0110
0011
0011
0110
0110
1100
1100
0110
0110
0110
0110
1001
1001
1001
1001
,
0011
0011
0110
0110
0011
0011
0110
0110
1001
1001
0110
0110
1001
1001
0110
0110
,
1100
1100
0011
0011
0110
0110
1100
1100
0011
0011
0110
0110
1001
1001
0110
0110
,
2002
0000
0000
0000
,
0000
0000
0000
0000
,
0000
0000
0000
0000
,
0000
0000
0000
0000
,
0000
0000
0000
0000
,
3003
0000
0000
0000
;
